#TITLE:Oh!;
#SUBTITLE:Dead Master;
#ARTIST:Girls Generation;
#TITLETRANSLIT:;
#SUBTITLETRANSLIT:;
#ARTISTTRANSLIT:;
#CREDIT:;
#BANNER:bn.jpg;
#BACKGROUND:bg.jpg;
#LYRICSPATH:;
#CDTITLE:cd.png;
#MUSIC:Girls Generation-Oh!.ogg;
#OFFSET:-1.695;
#SAMPLESTART:43.346;
#SAMPLELENGTH:12.000;
#SELECTABLE:YES;
#BPMS:0.000=144.055;
#STOPS:;
#BGCHANGES:;
// cache tags:
#FIRSTBEAT:1.000;
#LASTBEAT:307.250;
#SONGFILENAME:Songs/9you/Girls Generation-Oh!/Girls Generation-Oh!.sm;
#HASMUSIC:1;
#HASBANNER:1;
#MUSICLENGTH:130.000;
// end cache tags

//---------------dance-single - ----------------
#NOTES:
     dance-single:
     :
     Hard:
     1:
     0.645,0.739,0.562,0.338,0.819,470.000,73.000,44.000,0.000,0.000:
0000
0000
0000
0000
0001
0000
0000
1000
0000
0000
0010
0000
0100
0010
0000
0000
,
1000
0001
0000
0000
0100
0000
0010
0000
0010
0000
0010
0000
0000
0000
0000
0000
,
0001
0000
1000
0000
0000
0010
0000
0100
0000
0001
0000
0000
1000
0000
0010
0000
,
0001
0100
0000
0000
0000
1010
0000
0000
0001
0100
0000
0000
0000
0000
0000
0000
,
0010
0000
0001
0000
1000
0000
0000
0010
0000
0100
0000
0001
0000
1000
0000
0010
,
0100
0000
0000
0001
0000
0001
0000
0000
0020
0000
0000
0000
0000
0000
0030
0000
,
0001
0000
0010
0000
0100
0000
1000
0010
,
0000
0100
0001
0000
0000
0000
0000
0020
0000
0000
0000
0000
0000
0030
0000
0000
,
0101
0000
1000
0010
0000
0101
0000
0110
0000
1001
0000
0110
0000
0001
0000
0000
,
0000
0010
0000
0000
0000
0100
0000
0000
0001
0000
0000
0000
1000
0000
0000
0000
,
0010
0000
0010
0000
0100
0000
0001
0000
0020
0000
0000
0000
0030
1000
0000
0000
,
0100
0000
0010
0000
0010
0000
0100
0000
0000
0002
0000
0000
0000
0003
0000
0010
,
0000
0010
0000
0100
0010
0000
0000
1000
0000
0001
0000
0000
0100
0000
0020
0000
,
0000
0030
0100
0000
0010
0000
0100
0000
0001
0000
1000
0000
0010
0000
0100
0000
,
0000
0101
0000
0010
1000
0001
0000
0110
0000
0101
0000
0000
0000
0000
1010
0000
,
0010
0100
0100
0001
0000
0000
1010
0000
0002
0000
0000
0000
0000
0000
0003
0000
,
0010
0000
0010
0100
0000
1000
0000
0100
0000
0010
0000
0000
0000
0010
0010
0000
,
0100
0000
0000
0002
0000
0000
0000
1003
0000
0000
0010
0010
0000
0010
0000
0000
,
0000
0100
0001
0000
0000
1000
0000
0010
0100
0000
0000
0001
0000
0001
0000
0000
,
0010
0000
1000
0000
0100
0000
0020
0000
0000
0000
0000
0000
0000
0030
0100
0000
,
0100
0010
0000
0001
0000
1000
0000
0020
0000
0000
0000
0030
0100
0000
0001
0000
,
1000
0000
0010
0000
0100
0000
0002
0000
0000
0000
0000
0003
0000
0010
0000
0010
,
0000
0000
1000
0000
0100
0010
0010
0000
0000
0010
0000
0001
0000
0000
0000
0100
,
0010
0000
0010
0000
0000
1000
0100
0001
0002
0000
0003
0000
0000
0020
0000
0000
,
0000
0000
0000
0000
0000
0000
0000
0030
,
0101
0000
0000
0000
1010
0000
0010
1000
0000
0000
0101
0000
0101
0000
0000
0000
,
1010
0000
0000
0000
0101
0000
0101
0000
0000
0000
0010
1000
0010
1000
0000
0000
,
0001
0100
0101
0000
0000
0000
0101
0000
0000
0000
0101
0000
0101
0000
0000
0000
,
0010
0100
0000
0000
0000
0101
0000
0101
0000
0000
0000
1010
0000
1010
0000
0000
,
0101
0000
0000
0110
0000
0000
0110
0000
0000
1001
0000
0001
1000
0000
0000
0000
,
0110
0000
0001
1000
0000
0000
0000
0010
0020
0000
0000
0030
0001
0000
0002
0000
,
0000
0003
0010
0000
0010
0100
1000
0000
0200
0000
0000
0000
0300
0000
0000
0010
,
0000
0010
0000
0100
1000
0000
0100
0010
0010
0000
0000
0100
0002
0000
0000
0010
,
0003
0000
0100
0000
0000
0000
0002
0000
0000
0000
0000
0013
0000
0000
0010
0000
,
0000
0110
0000
0000
0001
1000
0000
0010
0000
0010
0000
0100
0000
0000
0002
0000
,
0000
0000
0020
0003
0000
0000
0000
0130
0000
0000
2000
0000
0000
0000
3000
0020
,
0000
0000
0000
0000
0000
0100
0000
0000
0100
0000
0000
0000
0100
0000
0000
0000
,
0000
1000
0000
1000
0000
0000
1000
0000
1000
0000
1000
1000
0000
0000
0030
0000
,
0101
0000
0000
1010
0000
0001
0100
0010
0000
1001
0000
0000
0110
0001
0000
0000
,
0002
0100
0000
0003
0010
0000
0000
0000
0000
0002
0000
0000
0000
0000
0003
0000
,
0010
0000
0010
0000
0100
2000
0000
0100
3010
0000
0010
0000
0010
0000
0100
0000
,
0001
0000
0000
1000
0000
0100
0000
0020
0000
0000
0000
0000
0000
0000
0000
0030
,
0100
0000
0000
0000
0002
0000
0000
0003
0010
0000
0000
0100
0000
0010
0000
0010
,
1000
0000
0100
0000
0010
0000
0010
0000
0002
0000
0000
0000
0000
0003
0010
0000
,
0010
0000
0100
0000
0010
0000
1000
0000
0100
0010
0000
0010
0000
0100
0001
0000
,
0000
0010
0000
0000
0100
0000
0000
0010
0000
0010
0000
0000
0001
0000
0000
0000
,
0010
0000
0100
0000
0001
0000
0000
1000
0000
0010
0000
0100
0001
0000
0000
1000
,
0000
0010
0000
0100
0001
0000
0001
0000
0001
0001
0000
0000
0000
0000
0000
0010
,
0100
0000
0000
0000
0000
1001
0000
0000
0000
0000
0101
0000
0101
0000
0000
0000
,
0010
1000
0010
0000
0000
0000
0101
0000
0000
0000
0101
0000
0101
0000
0000
0000
,
1010
0000
0000
0000
0000
0001
0100
0000
0000
0000
0010
0100
0110
0000
0000
0000
,
0000
0101
0000
0000
0000
0010
0100
0110
0000
0000
0001
0100
0101
0000
0000
0000
,
0010
1000
0000
0001
0000
0110
0000
0101
0000
0101
0000
0101
0000
1010
0000
1010
,
0000
0101
0000
0000
0000
0000
0110
0000
0000
0000
0101
0000
0101
0000
0000
0000
,
2010
0000
0010
3000
0001
0100
0001
0100
0000
1010
0010
0000
0101
0000
0101
0000
,
0010
0000
0000
0001
0000
0000
0010
0000
0000
0000
0100
0000
0010
0010
0000
0000
,
2000
0000
0000
0000
0000
0000
3020
0000
0000
0000
0000
0030
0200
0000
0000
0000
,
0000
0320
0000
0000
2030
0000
3020
0000
,
0230
0000
0000
0320
0000
0000
0000
0000
1000
0000
0000
0000
1000
0000
0000
0000
,
0100
0000
0000
0000
0000
1000
0000
0000
0100
0000
0100
0000
0100
0100
0000
0000
,
0030
0001
0000
0010
0000
0100
0000
0010
0000
0000
0001
0000
0010
0000
0000
0000
,
0000
0101
0000
0000
0000
0010
0000
0010
0000
0000
0100
0010
0000
0010
0000
0000
,
0001
0000
0000
0000
1000
0010
0000
0010
0000
0000
0100
0010
0010
0000
0000
0000
,
0001
0000
0000
0100
0010
0010
0000
0000
1000
0000
0010
0000
0010
0000
0000
0000
,
0000
0101
0000
0010
1000
0001
0000
0010
0000
0101
0000
0000
1010
0000
0001
0000
,
0000
0020
0000
0000
0000
0230
0000
0000
0000
0310
0000
0010
0000
0010
0000
0000
,
0000
0001
0000
0010
0000
1000
0000
0010
0000
0010
0010
0000
0100
0000
0001
0000
,
0020
0000
0000
0000
0000
0030
0200
0000
0000
0300
0010
0010
0000
0000
0000
0000
,
1001
0000
0010
0100
0001
1000
0010
0100
0001
1000
0010
0100
0001
0000
0000
0010
,
0020
0000
0000
0000
0000
0030
0100
0000
0000
0010
0000
0010
0000
0000
0000
0000
,
0001
0110
0000
0000
1001
0000
0110
0000
1001
0010
0100
0000
0001
0100
0000
0101
,
0000
0000
0010
0000
1010
0000
0000
0000
0101
0000
0001
0100
0000
0000
0000
0020
,
0000
0000
0000
0000
0000
0030
0000
0100
0000
0010
0000
0010
0000
0010
0000
0010
,
1000
0000
0000
0100
0000
0010
0010
0000
0010
0000
0000
0100
0000
0001
0000
0000
,
0010
0000
0010
0000
0010
0000
0100
0001
0000
0001
0000
0001
0000
1000
0010
0000
,
0010
0000
0000
0100
0000
0001
0000
0000
0000
0000
0010
0000
0010
0000
0200
0000
,
0000
0000
0000
0000
0000
0000
0000
0000
0000
0300
0020
0000
0000
0030
0000
0000
;
